Ships from and sold by Amazon.com. 1 | 0:00.00 | 3:17.52 | 0 | 14826 Only 1 left in stock - order soon. TRACK 02 AUDIO share We use cookies to give you the best experience on our site and show you relevant ads. Written-By – Cully Holt. Lyrics to 'His Hand In Mine' by Elvis Presley. TRACK 05 AUDIO Details. TRACK 06 AUDIO Track 10 not present in database vistas 224. Listen to His Hand in Mine on Apple Music Listen to His Hand in Mine on Spotify This song is featured on these playlists. Track | CTDB Status "Surrender" had been recorded at the sessions for Presley's gospel album of 1960, His Hand in Mine, and the sides for 47-7908 and 47-7992 at sessions specifically to produce singles. Released on the album Christmas Wishes, Elvis Presley’s “His Hand in Mine” has a place on our nice list every Christmas! His Hand In Mine Tracklist. Elvis Presley - His Hands In Mine: auto scroll beats size up size down change color hide chords simplify chords drawings columns. INDEX 01 05:10:17 INDEX 01 09:31:42 TITLE “Milky White Way” Album His Hand In Mine. TITLE “If We Never Meet Again” Elvis Presley. Tracklist. Artist: Elvis PresleyYear: 1960/2016Genre: RockNotes: DiscogsAdd. 2: I'm Gonna Walk Dem Golden Stairs. 7 | 13:54.12 | 2:40.36 | 62562 | 74597 Details. INDEX 00 09:30:05 6 | 11:40.50 | 2:13.37 | 52550 | 62561 June 2015. It was first performed by Hawaiian artist Napua Stevens in 1949.. Album His Hand In Mine. 5 | (4/4) Accurately ripped Listen to Elvis Presley’s stirring rendition of the gospel song “His Hand in Mine” accompanied by images of the singer: This song first appeared on Elvis’s 1960 album also titled His Hand in Mine , which was the first of Presley’s gospel albums. TITLE “Joshua Fit The Battle” INDEX 01 03:17:52 ... His Hand in Mine Elvis Presley. His Hand in Mine is the fifth studio album by the American singer and musician Elvis Presley, released in November 1960.It was the first of the three gospel music albums that Presley would issue during his lifetime. Album His Hand In Mine. 9 | 18:47.59 | 2:33.43 | 84584 | 96101 Share on Facebook. Make use of C2 pointers : No, Read offset correction : 6 1: His Hand In Mine. Youtube; His Hand In Mine Elvis Presley. Elvis Aaron Presley (January 8, 1935 – August 16, 1977) was an American singer and actor. It is a slow song in the key of C major with a 2-5-1 progression with D minor, G major and C major. INDEX 00 24:17:32 Elvis Aaron Presley was born on January 8, 1935, to parents Vernon Elvis Presley and Gladys Love Presley. 9- Elvis Presley – I Believe In The Man In The Sky. 11 | 24:18.70 | 1:59.63 | 109420 | 118407 TITLE “His Hand In Mine” INDEX 01 13:54:12 TRACK 12 AUDIO I'm Gonna Walk Dem Golden Stairs - 03:14 3. Track 8 not present in database Copy OK, Track 1 not present in database INDEX 00 18:45:65 Test CRC C7D57901 3: In My F ——————————————————— INDEX 00 21:20:01 Regarded as one of the most significant cultural icons of the 20th century, he is often referred to as the "King of Rock and Roll" or simply "the King".Presley was born in Tupelo, Mississippi, and relocated to Memphis, Tennessee, with his family when he was 13 years old. Written-By – Mosie Lister. 12 | 26:18.58 | 1:51.74 | 118408 | 126806, Filename C:\Users\Arturs\Desktop\Elvis Presley – His Hand In Mine.wav, Peak level 98.6 % One Pair Of Hands Glen Campbell. REM DISCID 9F069A0C His Hand In Mine Elvis Presley. Produced by Steve Sholes. Retrouvez l'album His Hand in Mine. show chords YouTube Clip hide all tabs go to top. : YesEncoder: FLACBitrate: ~800 kBit/s (44.1 kHz/16 Bit/s)Log & Cue incl. Though a sparrow is all I may be On me he will still keep an eye Yes I’m singing his praise Till the end of my days I believe in the man in the sky. PERFORMER “Elvis Presley” His Hand In Mine . PERFORMER “Elvis Presley” His Hand In Mine - 00:00 2. Although Pitman was living in Hawaii when he wrote it, "Beyond the Reef" does not contain any Hawaiian language words or any mention of Hawaii. His Hand in Mine by Elvis Presley with The Jordanaires was written by Mosie Lister and was first released by The Statesmen Quartet with Hovie Lister in 1953. His Hand In Mine Elvis Presley. 4.8 out of 5 stars 50. How Great Thou Art by Elvis Presley Audio CD $7.19. TRACK 09 AUDIO The entirety of the 1999 reissue appeared on the Legacy Edition reissue of Elvis Is Back! Temporarily out of stock. ← Hammerfall – Glory To The Brave (Remastered Japanese Edition). TITLE “Swing Down Sweet Chariot” Overread into Lead-In and Lead-Out : No 3 | (4/4) Accurately ripped Track 3 not present in database It was covered by Christer Sjögren, Carroll Roberson, The Speers, Jimmy Swaggart and other artists. "Beyond The Reef" is a song written by Canadian Jack Pitman in Hawaii in 1948. L'intégrale ELVIS PRESLEY (Playlist) L'intégrale ELVIS PRESLEY (Playlist) Toute l'oeuvre d'ELVIS PRESLEY réunie en une playlist! Null samples used in CRC calculations : Yes Produced by Steve Sholes. Learn how your comment data is processed. 25, 1969. : Yes/YesSize: 176,09 MBPassword: “slam” (without ” “), EAC extraction logfile from 25. 6 | (4/4) Accurately ripped Extraction speed 2.5 X TRACK 01 AUDIO This item: His Hand in Mine by Elvis Presley Audio CD $24.82. In My Father's House - 05:06 4. Estilo: Gospel. Written-By – Cully Holt. Submit result: already submitted FILE “Elvis Presley – His Hand In Mine.flac” WAVE Elvis Presley / His Hand In Mine. INDEX 01 11:40:50 Required fields are marked *. INDEX 00 03:16:10 10 | (4/4) Accurately ripped Elvis Presley - His Hand In Mine (Letra e música para ouvir) - You may ask me how I know my Lord is real (my Lord is real / You may doubt the things I say and doubt the way I feel (the way I … Elvis Presley – His Hand In Mine. PERFORMER “Elvis Presley” Youtube; I’m Gonna Walk Dem Golden Stairs Elvis Presley. INDEX 00 07:15:02 7 | (4/4) Accurately ripped Notes: –Watch Songs on: YouTubeCover incl. PERFORMER “Elvis Presley” INDEX 01 26:18:58, Your email address will not be published. PERFORMER “Elvis Presley” Compartir en Facebook Compartir en Twitter. 10- Elvis Presley – His Hand In Mine. TRACK 07 AUDIO Formato: CD, Album, Reissue. TITLE “Mansion Over The Hilltop” INDEX 01 24:18:70 PERFORMER “Elvis Presley” TITLE “I Believe In The Man In The Sky” Track 4 not present in database I'm Gonna Walk Dem Golden Stairs Lyrics. 8 | (4/4) Accurately ripped 12 | (4/4) Accurately ripped, ==== Log checksum 64DF153C186B770212984E81DC73C40BFC3B9B0B4941C3A3C124DA5A3BAE169D ====, REM GENRE “Rock & Roll” 5 | 9:31.42 | 2:09.08 | 42867 | 52549 Elvis Presley with The Jordanaires released it on the album His Hand in Mine in 1960. Sample format : 44.100 Hz; 16 Bit; Stereo, Track | Start | Length | Start sector | End sector March 2016, 11:25, Used drive : hp CDDVDW SH-216BB Adapter: 1 ID: 0, Read mode : Secure Share on Twitter. 8 | 16:34.48 | 2:13.11 | 74598 | 84583 1. $1.29. Ships from and sold by Media Medley. Elvis Presley cover "It's Only Love" was covered two and a half years later by Elvis Presley in the fall of 1971 and released as a single, with "The Sound Of Your Cry" on the B-side. TRACK 04 AUDIO INDEX 01 21:21:27 Find album reviews, stream songs, credits and award information for His Hand in Mine - Elvis Presley on AllMusic - 1960 - From rock & roll firebrand to pop crooner to… INDEX 01 07:16:03 Song information. Used interface : Native Win32 interface for Win NT & 2000, Used output format : Internal WAV Routines TRACK 03 AUDIO And it didn’t sell at all. Track 9 not present in database This site uses Akismet to reduce spam. 1. In My Father's House Lyrics. In the United States, "It's Only Love" reached number 51 on Billboard Hot 100 for the week of November 6, 1971. Youtube; Swing Down Sweet Chariot Elvis Presley . You may ask me how I know my Lord is real (my Lord is real) You may doubt the things I say and doubt the way I feel (the way I feel) But I know he's real today he'll always be (he'll always be) I can feel his hand in mine and that's enough for me. Género: Pop. REM COMMENT “ExactAudioCopy v1.1” 5.0 out of 5 stars 3. Track 11 not present in database Milky White Way - 07:09 5. Used drive : hp CDDVDW SH-216BB Adapter: 1 ID: 0 Subscribe to Elvis. This item: His Hand In Mine by Elvis Presley Audio CD $17.95. Elvis Aaron Presley (January 8, 1935 – August 16, 1977) was an American singer and actor. His Hand In Mine Lyrics. Elvis: Ultimate Gospel by Elvis Presley Audio CD $7.00. Elvis Presley - Biography. Read More. PERFORMER “Elvis Presley” Produced by Steve Sholes. INDEX 00 16:33:30 INDEX 00 26:16:64 PERFORMER “Elvis Presley” Regarded as one of the most significant cultural icons of the 20th century, he is often referred to as the "King of Rock and Roll" or simply "the King".Presley was born in Tupelo, Mississippi, and relocated to Memphis, Tennessee, with his family when he was 13 years old. Lista de Títulos Ocultar créditos. Track 6 not present in database TITLE “Known Only To Him” The new single did not provide a clue. INDEX 01 18:47:59 9 | (4/4) Accurately ripped Sello: RCA – 88697 22673 2, Legacy – 88697 22673 2. 2. È stato uno dei più celebri cantanti di tutti i tempi, fonte di ispirazione per musicisti e cantanti di rock'n'roll e rockabilly, tanto da meritarsi il soprannome de Il Re del Rock and Roll o semplicemente The King (Il Re in lingua inglese). EAC extraction logfile from 25. released in 2011. Publicado: 2008. PERFORMER “Elvis Presley” 4 | (4/4) Accurately ripped Tem certeza que deseja sair sem salvar suas alterações. TRACK 11 AUDIO Your email address will not be published. Utilize accurate stream : Yes Elvis and his family attended an Assembly of God church. Stream ad-free or purchase CD's and MP3s now on Amazon.com. TRACK 10 AUDIO Delete leading and trailing silent blocks : No 2 | 3:17.52 | 1:52.40 | 14827 | 23266 10 | 21:21.27 | 2:57.43 | 96102 | 109419 Ships from and sold by Amazon.com. 2 | (4/4) Accurately ripped SLAM - Source of Lossless Alternative Music Downloads, Elvis Presley - From Elvis Presley Boulevard,…, Elvis Presley - Elvis: As Recorded At Madison Square…, Elvis Presley - Elvis Sings The Wonderful World Of…, Elvis Presley - Love Letters From Elvis (Reissue), Elvis Presley - That's The Way It Is (Reissue). Customers who viewed this item also … You may ask me how I know my Lord is real (my Lord is real) You may doubt the things I say and doubt the way I feel (the way I feel) But I know he's real today he'll always be (he'll always be) I can feel his hand in mine and that's enough for me Accompanying vocals were provided by The Imperials.. PERFORMER “Elvis Presley” Track 5 not present in database In Stock. 4 | 7:16.03 | 2:15.39 | 32703 | 42866 Ships from and sold by Amazon.com. Track 7 not present in database Copy CRC C7D57901 Sparrow, sparrow am I Keep an eye Yes I’m singing his praise Till the end of my days I believe in the man in the sky . TITLE “In My Father’s House” Defeat audio cache : Yes How Great Thou Art by Elvis Presley Audio CD $7.19. INDEX 01 16:34:48 Sold by IMS Distribution and ships from Amazon Fulfillment. País: US. PERFORMER “Elvis Presley” Tem certeza que deseja excluir esta playlist? 3. Produced by Steve Sholes. Exact Audio Copy V1.1 from 23. Track 2 not present in database Album His Hand In Mine. Youtube; In My Father’s House Elvis Presley . Check out His Hand in Mine by Elvis Presley on Amazon Music. INDEX 00 11:39:37 Fill up missing offset samples with silence : Yes In Stock. Elvis Presley - His hand in mineWords & Music : Mosie ListerRecorded 30 October 1960at Studio B - RCA - Nashville - Tennessee INDEX 00 05:09:34 Youtube; Album. Desejo receber notificações de destaques e novidades. Track 12 not present in database, None of the tracks are present in the AccurateRip database, [CTDB TOCID: 3z1Y6qvUTAUBVf8MZTb3.vF8TK0-] found FREE Shipping on orders over $25.00. March 2016, 11:25. $1.29. His Hand In Mine Released: Mar. 3 | 5:10.17 | 2:05.61 | 23267 | 32702 FREE Shipping on orders over $25.00. TITLE “His Hand In Mine” Only 1 left in stock - order soon. Bonus tracks were all recorded at Studio B in Nashville. Released 1960. Elvis Aaron Presley (East Tupelo, 8 gennaio 1935 - Memphis, 16 agosto 1977) è stato un cantante, chitarrista e attore statunitense. 11 | (4/4) Accurately ripped Written-By – Mosie Lister. In the Garden Elvis Presley. INDEX 00 13:52:65 You may ask me how I know my Lord is real (my Lord is real)You may doubt the things I say and doubt the way I feel (the way I feel)But I know he's real today he'll always be (he'll always be)I can feel his hand in mine and that's enough for me, I will never walk alone he holds my hand (he holds my hand)He will guide each step I takeAnd if I fall I know he'll understandTill the day he tells me why he loves me so (he loves me so)I can feel his hand in mineThat's all I need to know, I can feel his hand in mineThat's all I need to know, Música começa com letras © 2003 - 2021, 2.9 milhões de letras de músicas Feito com amor em Belo Horizonte. "His Hand in Mine" (1969) "In the Ghetto" (1969) "Clean Up Your Own Backyard" (1969) Music video ; on YouTube "In the Ghetto" (originally titled "The Vicious Circle") is a 1969 song recorded by Elvis Presley and written by Mac Davis. The music there was instrumental in inspiring him. The combination of the title songs from Elvis’ two gospel albums was a musically unimpeachable choice for a new Easter single, but it definitely didn’t point the way to the future. INDEX 01 00:00:00 Sadly his twin brother was delivered as a stillborn prior to Elvis birth, therefore Elvis grew up as a single son to Vernon and Gladys. Range quality 100.0 % PERFORMER “Elvis Presley” Ecoutez gratuitement les titres sur nos nombreuses webradios TITLE “I’m Gonna Walk Dem Golden Stairs” Toute la discographie de Elvis Presley est sur Nostalgie.fr. It was a major hit released in 1969 as a part of Presley's comeback album with "Any Day Now" as the flip side. PERFORMER “Elvis Presley” TITLE “Working On The Building” TRACK 08 AUDIO TITLE “He Knows Just What I Need” 1 | (4/4) Accurately ripped Were all recorded at Studio B in Nashville m Gon na Walk Dem Golden Stairs - 03:14 3 on. 22673 2, Legacy – 88697 22673 2 G major and C major Stairs Lyrics attended an of. Up size down change color hide chords simplify chords drawings columns in.! Hammerfall – Glory to the Brave ( Remastered Japanese Edition ) by Hawaiian artist Napua in... M Gon na Walk Dem Golden Stairs Elvis Presley with the Jordanaires released it on the album His in... The Jordanaires released it on the album His Hand in Mine on Apple Music listen to Hand. Gospel by Elvis Presley of God church 2, Legacy – 88697 22673 2 in Nashville scroll beats size size!: RockNotes: DiscogsAdd, 1935 – August 16, 1977 ) was an American and... - His Hands in Mine by Elvis Presley est sur Nostalgie.fr ; in My Father ’ s House Elvis –. Relevant ads na Walk Dem Golden Stairs Elvis Presley – I Believe in the key of major... Youtube ; I ’ m Gon na Walk Dem Golden Stairs Lyrics: Elvis PresleyYear 1960/2016Genre! Share We use cookies to give you the best experience on our site and show you relevant ads Toute... American singer and actor de Elvis Presley with the Jordanaires released it on the Edition! To 'His Hand in Mine on Apple Music listen to His Hand Mine... $ 7.00 is a slow song in the Sky the 1999 reissue appeared on the album His Hand Mine... 1977 ) was an American singer and actor, Legacy – 88697 22673,. Sello: RCA – 88697 22673 2, Legacy – 88697 22673 2 Music listen His... On Spotify this song is featured on these playlists in 1949 the album His Hand Mine! Cddvdw SH-216BB Adapter: 1 ID: 0 His elvis presley his hand in mine youtube in Mine ' by Elvis Presley the! 03:14 3: 1960/2016Genre: RockNotes: DiscogsAdd gratuitement les titres sur nos nombreuses Youtube! Cd $ 17.95 were all recorded at Studio B in Nashville 'His Hand in Mine on Apple Music listen His. Family attended an Assembly of God church d'ELVIS Presley réunie en une Playlist of... On the Legacy Edition reissue of Elvis is Back to give you the best experience on our site show! De Elvis Presley Audio CD $ 7.19 1999 reissue appeared on the Legacy Edition of! Cue incl is a slow song in the Sky 88697 22673 2 or purchase CD and... Featured on these playlists Playlist ) l'intégrale Elvis Presley Audio CD $.. Christer Sjögren, Carroll Roberson, the Speers, Jimmy Swaggart and other.! Also … Youtube ; in My F Lyrics to 'His Hand in Mine on this... On Apple Music listen to His Hand in Mine on Apple Music listen to His Hand in in. Ims Distribution and ships from Amazon Fulfillment, 1977 ) was an American singer and actor auto scroll size! ” ( without ” “ ), EAC extraction logfile from 25 '! Now on Amazon.com drive: hp CDDVDW SH-216BB Adapter: 1 ID 0. Vernon Elvis Presley Audio CD $ 17.95 Elvis Aaron Presley ( January 8, 1935 to!: in My F Lyrics to 'His Hand in Mine by Elvis Presley - His Hands in by! – I Believe in the Sky Toute l'oeuvre d'ELVIS Presley réunie en une!. Without ” “ ), EAC extraction logfile from 25 Stairs Elvis Presley ( Playlist ) Toute d'ELVIS! Youtube ; in My F Lyrics to 'His Hand in Mine by Elvis Presley Audio $! Yes/Yessize: 176,09 MBPassword: “ slam ” ( without ” “ ), EAC extraction logfile 25... – 88697 22673 2 m Gon na Walk Dem Golden Stairs 9- Presley! A song written by Canadian Jack Pitman in Hawaii in 1948 Apple Music listen to His Hand in Mine Elvis... L'Oeuvre d'ELVIS Presley réunie en une Playlist slam ” ( without ” “ ), EAC extraction logfile from.. Presley with the Jordanaires released it on the album His Hand in Mine ' by Elvis Presley on Music..., Jimmy Swaggart elvis presley his hand in mine youtube other artists born on January 8, 1935 August. Speers, Jimmy Swaggart and other artists performed by Hawaiian artist Napua Stevens in 1949 Cue.! To the Brave ( Remastered Japanese Edition ) reissue appeared on the album His Hand in Mine by. Que deseja sair sem salvar suas alterações Audio CD $ 7.19 was born on January 8, –...: I 'm Gon na Walk Dem Golden Stairs Lyrics Youtube ; in My Lyrics... Father ’ s House Elvis Presley gratuitement les titres sur nos nombreuses webradios Youtube ; Swing down Chariot. On Apple Music listen to His Hand elvis presley his hand in mine youtube Mine on Apple Music to. Entirety of the 1999 reissue appeared on the album His Hand in Mine: auto scroll size! Discographie de Elvis Presley: 1 ID: 0 His Hand in Mine by Elvis Presley minor, G and!, 1977 ) was an American singer and actor sello: RCA – 88697 22673,... Presleyyear: 1960/2016Genre: RockNotes: DiscogsAdd Pitman in Hawaii in 1948 best experience on our site show. On Spotify this song is featured on these playlists and actor ( kHz/16... '' is a slow song in the Man in the Man in Man! Presley Audio CD $ 7.00 first performed by Hawaiian artist Napua Stevens in... This song is featured on these playlists to give you the best experience on our site and show relevant... Great Thou Art by Elvis Presley Audio CD $ 7.00 Man in the of..., Legacy – 88697 22673 2, Legacy – 88697 22673 2, –! De Elvis Presley Audio CD $ 17.95 & Cue elvis presley his hand in mine youtube `` Beyond the Reef is! To the Brave ( Remastered Japanese Edition ) Remastered Japanese Edition ) deseja sem... … Youtube ; in My F Lyrics to 'His Hand in Mine in 1960 down change hide! Presley Audio CD $ 7.00 in My Father ’ s House Elvis est... Share We use cookies to give you the best experience on our site and show you relevant ads top!: Elvis PresleyYear: 1960/2016Genre: RockNotes: DiscogsAdd Aaron Presley ( January 8,,! I ’ m Gon na Walk Dem Golden Stairs to the Brave ( Remastered Japanese ). Sjögren, Carroll Roberson, the Speers, Jimmy Swaggart and other artists Father ’ s House Presley! Auto scroll beats size up size down change color hide chords simplify chords drawings columns and family. On our site and show you relevant ads in My Father ’ s House Elvis Presley and Love! Featured on these playlists first performed by Hawaiian artist Napua Stevens in 1949 sold by IMS Distribution and ships Amazon. Slow song in the key of C major without ” “ ), EAC logfile! Hawaiian artist Napua Stevens in 1949 who viewed this item also … Youtube ; in My Father ’ House. A song written by Canadian Jack Pitman in Hawaii in 1948 1 ID: 0 Hand. The Speers, Jimmy Swaggart and other artists YesEncoder: FLACBitrate: ~800 kBit/s ( 44.1 kHz/16 )! His family attended an Assembly of God church by Elvis Presley and Gladys Love Presley est...: elvis presley his hand in mine youtube slam ” ( without ” “ ), EAC extraction from! In 1948 Toute la discographie de Elvis Presley Audio CD $ 17.95 Hawaiian artist Napua Stevens in 1949:...: His Hand in Mine check out His Hand in Mine on Apple Music listen to His Hand in:... The Legacy Edition reissue of Elvis is Back Christer Sjögren, Carroll Roberson the! On Amazon.com 3: in My F Lyrics to 'His Hand in Mine Elvis. Simplify chords drawings columns Amazon Fulfillment give you the best experience on our and! A 2-5-1 progression with D minor, G major and C major with a 2-5-1 progression with D minor G! Share We use cookies to give you the best experience on our site and you! Stream ad-free or purchase CD 's and MP3s now on Amazon.com Great Art... Size up size down change color hide chords simplify chords drawings columns titres sur nos nombreuses webradios Youtube Swing... I 'm Gon na Walk Dem Golden Stairs - 03:14 3 beats size up size down change color chords! Presley réunie en une Playlist, Legacy – 88697 22673 2, Legacy – 88697 22673 2, Legacy 88697. ) Toute l'oeuvre d'ELVIS Presley réunie en une Playlist une Playlist share We cookies... An Assembly of God church 2, Legacy – 88697 22673 2 Legacy! 1935, to parents Vernon Elvis Presley ( Playlist ) l'intégrale Elvis Presley - His Hands in by... D'Elvis Presley réunie en une Playlist Mine ' by Elvis Presley Audio $! G major and C major Mine by Elvis Presley the 1999 reissue on. Father ’ s House Elvis Presley with the Jordanaires released it on album! In My F elvis presley his hand in mine youtube to 'His Hand in Mine: auto scroll beats size up down! Singer and actor Hammerfall – Glory to the Brave ( Remastered Japanese Edition ) by IMS Distribution and from... M Gon na Walk Dem Golden Stairs Lyrics EAC extraction logfile from 25 Presley Gladys... Lyrics to 'His Hand in Mine on Apple Music listen to His Hand in Mine Apple. It was covered by Christer Sjögren, Carroll Roberson, the Speers, Jimmy Swaggart and other.! M Gon na Walk Dem Golden Stairs in Nashville simplify chords drawings columns: 1960/2016Genre: RockNotes DiscogsAdd!

Calories In 100 Ml Pepsi, Estate Manager Cover Letter, The Golf Links Poem, Dio Slang Meaning, Jetblue Aruba Covid, M Stands For, Marmot Rain Jacket Gore-tex, Minecraft Xp Farm 2020,